[4K视频]

[4K高清纪录片] 加利福尼亚瀑布 2015

 
发表在 4K视频 2016-7-28 18:41

加利福尼亚瀑布位于波利纳斯附近的雷耶斯国家海滨。它是罕有的潮汐瀑布,因为它直接注入太平洋。这种多层次的瀑布全年活跃,在冬天时尤为壮观。当地的冬天正值雨季,降水量大,使得瀑布水量上涨,真是飞流直下!  



General
Complete name : California.Waterfall.Relaxation.2015.2160p.WEB-DL.Eng.ULTRAHDCLUB.mp4
Format : MPEG-4
Format version : Base Media / Version 2
Codec ID : mp42 (mp42/mp41)
File size : 19.1 GiB
Duration : 1 h 0 min
Overall bit rate mode : Variable
Overall bit rate : 45.3 Mbps
Encoded date : UTC 2015-07-28 23:48:03
Tagged date : UTC 2015-07-28 23:54:45

Video
ID : 1
Format : AVC
Format/Info : Advanced Video Codec
Format profile : High@L5.1
Format settings, CABAC : Yes
Format settings, ReFrames : 3 frames
Codec ID : avc1
Codec ID/lnfo : Advanced Video Coding
Duration : 1 h 0 min
Bit rate : 45.0 Mbps
Width : 3840 pixels
Height : 2160 pixels
Display aspect ratio : 16:9
Frame rate mode : Variable
Frame rate : 23.976 (24000/1001) FPS
Minimum frame rate : 23.976 FPS
Maximum frame rate : 24.000 FPS
Standard : NTSC
Color space : YUV
Chroma subsampling : 4:2:0
Bit depth : 8 bits
Scan type : Progressive
Bits/(Pixel*Frame) : 0.226
Stream size : 18.9 GiB (99%)
Language : English
Encoded date : UTC 2015-07-28 23:48:03
Tagged date : UTC 2015-07-28 23:48:03
Color range : Limited
Color primaries : BT.709
Transfer characteristics : BT.709
Matrix coefficients : BT.709

Audio
ID : 2
Format : AAC
Format/Info : Advanced Audio Codec
Mode extension : LC
Codec ID : 40
Duration : 1 h 0 min
Source duration : 1 h 0 min
Bit rate mode : Variable
Bit rate : 317 Kbps
Maximum bit rate : 336 Kbps
Channel(s) : 2 channels
Channel positions : Front: L R
Sampling rate : 48.0 KHz
Frame rate : 46.875 FPS (1024 spf)
Compression mode : Lossy
Stream size : 137 MiB (1%)
Source stream size : 137 MiB (1%)
Language : English
Encoded date : UTC 2015-07-28 23:48:03
Tagged date : UTC 2015-07-28 23:48:03

下载地址:
此处内容被隐藏,回复本帖后可见




上一篇:LG IPS 4K 演示片 - 巴塞罗那 (HEVC)
下一篇:色彩视觉冲击:createled 4K视频,汗毛都看清楚了
当贝市场
19 个回复
倒序浏览
htyjhtyj中级投影控 发表于 2019-1-23 16:03 显示全部楼层
智能投影用当贝市场,看直播,看电影都不是事。
lining333中级投影控 发表于 2018-11-13 14:57 显示全部楼层
[4K高清纪录片] 加利福尼亚瀑布 2015
wkgens发烧级投影控 发表于 2016-8-24 18:32 显示全部楼层
看起来不错
支持一下!支持投影网发展
刚入手投影仪的玩家前来报到
i29821发烧级投影控 发表于 2018-6-23 21:39 显示全部楼层
支持你哈........
感恩无私的分享的好人
史哲哲中级投影控 发表于 2018-7-17 00:36 显示全部楼层
好内容,果断马克了!
从此改名初级投影控 发表于 2018-11-13 16:44 投影网手机版 显示全部楼层
不下载是不行的
simon初级投影控 发表于 2018-12-3 07:34 显示全部楼层
舒适
mygnz入门级投影控 发表于 2018-12-5 10:48 显示全部楼层
690969696969
111asd入门级投影控 发表于 2019-2-13 13:43 显示全部楼层
优质好贴,果断先马克了!
JMGO高级投影控 发表于 2019-2-17 13:35 显示全部楼层
感谢分享好内容
缘分-天空版主 发表于 2019-2-17 18:45 显示全部楼层
在投影网学到不少好知识

快速回复

您需要登录后才可以回帖 登录 | 立即注册

本版积分规则

19快速回复