[DTS]

专业DTS:X 7.1环绕声测试演示片《目标模拟器》无损音质4K/615MB

 
发表在 杜比音效 2018-5-15 15:22






专业DTS:X 7.1环绕声测试演示片《目标模拟器》无损音质4K/615MB  (高码率 HEVC 10bit)[2160P/MKV/615MB]

General
Complete name : DTS_X_Object_Emulator_(Lossless)_(UHD-DWEU).mkv
Format : Matroska
Format version : Version 4 / Version 2
File size : 615 MiB
Duration : 1 min 35 s
Overall bit rate : 54.3 Mbps
Encoded date : UTC 2018-02-14 16:56:10
Writing application : mkvmerge v20.0.0 ('I Am The Sun') 64-bit
Writing library : libebml v1.3.5 + libmatroska v1.4.8

Video
ID : 1
Format : HEVC
Format/Info : High Efficiency Video Coding
Format profile : Main 10@L5.1@High
Codec ID : V_MPEGH/ISO/HEVC
Duration : 1 min 35 s
Bit rate : 49.3 Mbps
Width : 3840 pixels
Height : 2160 pixels
Display aspect ratio : 16:9
Frame rate mode : Constant
Frame rate : 23.976 (24000/1001) FPS
Color space : YUV
Chroma subsampling : 4:2:0
Bit depth : 10 bits
Bits/(Pixel*Frame) : 0.248
Stream size : 559 MiB (91%)
Writing library : ATEME Titan KFE 3.7.3 (4.7.3.1003)
Default : Yes
Forced : No
Color range : Limited
Color primaries : BT.709
Transfer characteristics : BT.709
Matrix coefficients : BT.709

Audio
ID : 2
Format : DTS
Format/Info : Digital Theater Systems
Format profile : X / MA / Core
Codec ID : A_DTS
Duration : 1 min 35 s
Bit rate mode : Variable / Variable / Constant
Bit rate : 4966 kbps / 4966 kbps / 1509 kbps
Channel(s) : Object Based / 8 channels / 6 channels
Channel positions : Object Based / Front: L C R, Side: L R, Back: L R, LFE / Front: L C R, Side: L R, LFE
Sampling rate : / 48.0 kHz / 48.0 kHz
Frame rate : 93.750 FPS (512 SPF)
Bit depth : / 24 bits / 24 bits
Compression mode : / Lossless / Lossy
Stream size : 56.2 MiB (9%)
Default : Yes
Forced : No


DTS:X 和杜比全景声之间有一种竞争的关系,因为它们作为两种不同的标准,都是要带来更加逼真生动的环绕声效果。

不同的是,杜比全景声在传统的 5.1 或 7.1 声道配置外,还要求有天顶上的扬声器,或是能够将声音发射到天花板上反射下来的设备,而 DTS:X 则坚持标准的环绕声配置

下载地址:

此处内容被隐藏,回复本帖后可见



上一篇:「无损音质4K视频」专业DTS:X 7.1环绕声视频演示片 [924MB]
下一篇:杜比Dolby Vision 5.1声道视频4K演示片 五彩斑斓的色彩![298MB]
158 个回复
倒序浏览
dksbss入门级投影控 发表于 2018-11-26 10:34 投影网手机版 显示全部楼层
guzl 发表于 2018-10-9 12:10
马克 大神 围观 资源 感恩 给力 不错 支持 RE: 专业DTS:X 7.1环绕声测试演示片《目标模拟器》无损音质4K/6 ...

很好
guzl入门级投影控 发表于 2018-10-9 12:10 显示全部楼层
马克 大神 围观 资源 感恩 给力 不错 支持 RE: 专业DTS:X 7.1环绕声测试演示片《目标模拟器》无损音质4K/6

点评

很好  详情 回复 发表于 2018-11-26 10:34
 楼主 米米管理员 发表于 2018-5-15 15:59 显示全部楼层
DTS:X 和杜比全景声哪个更好?对比告诉你区别
http://www.touying.com/t/9872/1

9jlkn高级投影控 发表于 2018-5-18 17:47 显示全部楼层
厉害!必须顶一个
2iongdl发烧级投影控 发表于 2018-5-24 22:47 显示全部楼层
智能投影还是还是很方便的
luting高级投影控 发表于 2018-5-25 21:49 显示全部楼层
回复看一下;谢谢!
马克 大神 围观 资源 感恩 给力 不错 支持
RE: 专业DTS:X 7.1环绕声测试演示片《目标模拟器》无损音质4K/6
支持投影网发展!
yyww1106初级投影控 发表于 2018-6-15 00:37 显示全部楼层
先收藏了,感谢!
5637589abc高级投影控 发表于 2018-6-15 07:34 显示全部楼层
先收藏了,感谢!
leeyeep入门级投影控 发表于 2018-6-17 23:14 显示全部楼层
先收藏了,感谢!
fwsyl入门级投影控 发表于 2018-6-23 08:53 显示全部楼层
先收藏了,感谢!
mxj0791初级投影控 发表于 2018-6-23 16:05 显示全部楼层
投影网大神带带我
mxj0791初级投影控 发表于 2018-6-23 16:17 显示全部楼层
投影网大神带带我
cxm13842初级投影控 发表于 2018-6-24 17:42 显示全部楼层
厉害!必须顶一个!
支持一下!支持投影网发展

快速回复

您需要登录后才可以回帖 登录 | 立即注册

本版积分规则

热门图文

热门板块
158快速回复